The.Eight.Immortals.Restaurant.The.Untold.Story.1993.CHINESE.720p...

seeders: 4
leechers: 1
updated:
Added by Sergey321 in Other


ᕦ( ▨̅ ͜▨̅ )ᕥ SPECIAL DEAL - OFFER ᕦ( ▨̅ ͜▨̅ )ᕥ
strongly advises you to use Nord while downloading torrents.
Nord is the safest on the market, and the fastest as well.
No IP Log is saved using Nord, avoid other providers and choose the safest one.
Click here and buy Nord it's on rebates today!
We were able to verify your IP: 3.233.221.149, country: United States.
If we can do that, others can too, protect your privacy with Nord.
is trying the best for you!
ᕦ( ▨̅ ͜▨̅ )ᕥ SPECIAL DEAL - OFFER ᕦ( ▨̅ ͜▨̅ )ᕥ


Description

The.Eight.Immortals.Restaurant.The.Untold.Story.1993.CHINESE.720p.BluRay.H264.AAC-VXT  
https://www.imdb.com/title/tt0103743/ 

Poster:  

Mediainfo:  

Video:  
Format : AVC
Duration : 1 h 35 min
Bit rate : 1 500 kb/s
Width : 1 280 pixels
Height : 720 pixels
Frame rate : 23.976 (23976/1000) FPS
Stream size : 1.00 GiB (87%)

Audio:  
Format : AAC LC
Duration : 1 h 35 min
Bit rate : 224 kb/s
Channel(s) : 2 channels
Stream size : 154 MiB (13%)
Language : Chinese


Screenshots:  

 
 
 

Sharing Widget


Download torrent
Size: 1.2 GB
seeders:4
leechers:1
The.Eight.Immortals.Restaurant.The.Untold.Story.1993.CHINESE.720p... - (1288490188 Bytes)



To share this torrent use the code below and insert it into comments, status messages, forum posts or your signature.

Torrent: The.Eight.Immortals.Restaurant.The.Untold.Story.1993.CHINESE.720p...

Trackers

tracker name
http://tracker.trackerfix.com:80/announce
udp://9.rarbg.me:2790/announce
udp://9.rarbg.to:2750/announce
udp://tracker.zer0day.to:1337/announce
udp://tracker.leechers-paradise.org:6969/announce
udp://coppersurfer.tk:6969/announce
µTorrent compatible trackers list

Locations

name
KickassTorrents
Torrent hash: 7434409A2E0336C41042835B7631C26338284043

ᕦ( ▨̅ ͜▨̅ )ᕥ SPECIAL DEAL - OFFER ᕦ( ▨̅ ͜▨̅ )ᕥ
strongly advises you to use Nord while downloading torrents.
Nord is the safest on the market, and the fastest as well.
No IP Log is saved using Nord, avoid other providers and choose the safest one.
Click here and buy Nord it's on rebates today!
We were able to verify your IP: 3.233.221.149, country: United States.
If we can do that, others can too, protect your privacy with Nord.
is trying the best for you!
ᕦ( ▨̅ ͜▨̅ )ᕥ SPECIAL DEAL - OFFER ᕦ( ▨̅ ͜▨̅ )ᕥ

All Comments

*comments box temporarily disabled*
Report a bug